<?xml version="1.0" standalone="no"?>
<!DOCTYPE svg PUBLIC "-//W3C//DTD SVG 1.1//EN" "http://www.w3.org/Graphics/SVG/1.1/DTD/svg11.dtd" >
<svg xmlns="http://www.w3.org/2000/svg">
<metadata></metadata>
<defs>
<font id="arcadepix_plusregular" horiz-adv-x="1088" >
<font-face units-per-em="2048" ascent="1638" descent="-410" />
<missing-glyph horiz-adv-x="384" />
<glyph horiz-adv-x="0" />
<glyph horiz-adv-x="682" />
<glyph unicode=" "  horiz-adv-x="384" />
<glyph unicode="&#x09;" horiz-adv-x="384" />
<glyph unicode="&#xa0;" horiz-adv-x="384" />
<glyph unicode="!" horiz-adv-x="704" d="M0 0v128h128v-128h-128zM128 256v512h128v128h256v-384h-128v-128h-128v-128h-128z" />
<glyph unicode="&#x22;" horiz-adv-x="832" d="M0 512v128h128v-128h-128zM0 768v128h256v-256h-128v128h-128zM384 512v128h128v-128h-128zM384 768v128h256v-256h-128v128h-128z" />
<glyph unicode="#" horiz-adv-x="832" d="M0 256v128h128v128h-128v128h128v128h128v-128h128v128h128v-128h128v-128h-128v-128h128v-128h-128v-128h-128v128h-128v-128h-128v128h-128zM256 384h128v128h-128v-128z" />
<glyph unicode="$" horiz-adv-x="960" d="M0 128v128h512v128h-384v128h512v-128h128v-128h-128v-128h-128v-128h-128v128h-384zM0 512v128h128v-128h-128zM128 640v128h256v128h128v-128h128v-128h-512z" />
<glyph unicode="%" d="M0 0v128h128v-128h-128zM0 640v128h128v-128h-128zM128 128v128h128v-128h-128zM128 512v128h128v-128h-128zM128 768v128h128v-128h-128zM256 256v128h128v-128h-128zM256 640v128h128v-128h-128zM384 384v128h128v-128h-128zM512 128v128h128v-128h-128zM512 512v128 h128v-128h-128zM640 0v128h128v-128h-128zM640 256v128h128v-128h-128zM640 640v128h128v-128h-128zM768 128v128h128v-128h-128zM768 768v128h128v-128h-128z" />
<glyph unicode="&#x26;" horiz-adv-x="960" d="M0 128v256h128v128h128v128h-128v128h128v128h256v-128h-128v-128h128v-256h128v-128h128v-256h-128v128h-128v128h-128v128h-128v-256h256v-128h-384v128h-128zM512 640v128h128v-128h-128zM640 384v128h128v-128h-128z" />
<glyph unicode="'" horiz-adv-x="448" d="M0 512v128h128v-128h-128zM0 768v128h256v-256h-128v128h-128z" />
<glyph unicode="(" horiz-adv-x="704" d="M0 128v640h128v128h384v-128h-256v-640h256v-128h-384v128h-128z" />
<glyph unicode=")" horiz-adv-x="704" d="M0 0v128h256v640h-256v128h384v-128h128v-640h-128v-128h-384z" />
<glyph unicode="*" horiz-adv-x="832" d="M0 384v128h128v128h-128v128h256v128h128v-128h256v-128h-128v-128h128v-128h-256v-128h-128v128h-256z" />
<glyph unicode="+" horiz-adv-x="960" d="M0 256v256h256v256h256v-256h256v-256h-256v-256h-256v256h-256z" />
<glyph unicode="," horiz-adv-x="576" d="M0 0h128v256h256v-256h-128v-128h-256v128z" />
<glyph unicode="-" horiz-adv-x="960" d="M0 256v256h768v-256h-768z" />
<glyph unicode="." horiz-adv-x="448" d="M0 0v256h256v-256h-256z" />
<glyph unicode="/" d="M0 0v128h128v-128h-128zM128 128v128h128v-128h-128zM256 256v128h128v-128h-128zM384 384v128h128v-128h-128zM512 512v128h128v-128h-128zM640 640v128h128v-128h-128zM768 768v128h128v-128h-128z" />
<glyph unicode="0" d="M0 256v384h128v128h128v-512h128v-128h256v-128h-384v128h-128v128h-128zM256 768v128h384v-128h128v-128h128v-384h-128v-128h-128v512h-128v128h-256z" />
<glyph unicode="1" horiz-adv-x="960" d="M0 0v128h256v512h-128v128h128v128h256v-768h256v-128h-768z" />
<glyph unicode="2" d="M0 0v256h128v128h128v128h256v128h128v128h-384v-128h-256v128h128v128h640v-128h128v-256h-128v-128h-128v-128h-256v-128h512v-128h-896z" />
<glyph unicode="3" d="M0 128v128h256v-128h384v256h-384v128h128v128h128v128h-384v128h768v-128h-128v-128h-128v-128h128v-128h128v-256h-128v-128h-640v128h-128z" />
<glyph unicode="4" d="M0 256v256h128v128h128v128h128v128h384v-512h128v-128h-128v-256h-256v256h-512zM256 384h256v256h-128v-128h-128v-128z" />
<glyph unicode="5" d="M0 128v128h256v-128h384v256h-640v512h896v-128h-640v-128h512v-128h128v-384h-128v-128h-640v128h-128z" />
<glyph unicode="6" d="M0 128v512h128v128h128v128h640v-128h-512v-128h-128v-128h512v-128h128v-256h-128v-128h-640v128h-128zM256 128h384v256h-384v-256z" />
<glyph unicode="7" d="M0 640v256h896v-256h-128v-128h-128v-128h-128v-384h-256v384h128v128h128v128h128v128h-384v-128h-256z" />
<glyph unicode="8" d="M0 128v256h128v-256h-128zM0 512v256h128v128h512v-128h-384v-128h128v-128h256v-128h-512v128h-128zM128 0v128h512v256h256v-256h-128v-128h-640zM640 512v256h128v-256h-128z" />
<glyph unicode="9" d="M0 512v256h128v128h640v-128h128v-512h-128v-128h-128v-128h-512v128h384v128h128v128h-512v128h-128zM256 512h384v256h-384v-256z" />
<glyph unicode=":" horiz-adv-x="448" d="M0 0v256h256v-256h-256zM0 384v256h256v-256h-256z" />
<glyph unicode=";" horiz-adv-x="576" d="M0 0h128v256h256v-256h-128v-128h-256v128zM128 384v256h256v-256h-256z" />
<glyph unicode="&#x3c;" horiz-adv-x="832" d="M0 384v256h128v128h128v128h128v128h256v-128h-128v-128h-128v-128h-128v-256h128v-128h128v-128h128v-128h-256v128h-128v128h-128v128h-128z" />
<glyph unicode="=" horiz-adv-x="960" d="M0 128v256h768v-256h-768zM0 512v256h768v-256h-768z" />
<glyph unicode="&#x3e;" horiz-adv-x="832" d="M0 0v128h128v128h128v128h128v256h-128v128h-128v128h-128v128h256v-128h128v-128h128v-128h128v-256h-128v-128h-128v-128h-128v-128h-256z" />
<glyph unicode="?" d="M0 512v256h128v128h640v-128h128v-256h-128v-128h-256v-128h-256v128h128v128h256v256h-384v-256h-256zM256 0v128h256v-128h-256z" />
<glyph unicode="@" d="M0 128v512h128v-512h-128zM128 0v128h128v-128h-128zM128 640v128h128v-128h-128zM256 0h256v-128h-256v128zM256 256v256h128v-256h-128zM256 768v128h512v-128h-512zM384 128v128h256v256h128v-384h-384zM384 512v128h256v-128h-256zM768 0v128h128v-128h-128zM768 640 v128h128v-128h-128zM896 128v512h128v-512h-128z" />
<glyph unicode="A" d="M0 0v640h128v128h128v128h384v-128h128v-128h128v-640h-256v256h-384v-256h-256zM256 384h384v256h-128v128h-128v-128h-128v-256z" />
<glyph unicode="B" d="M0 0v896h768v-128h128v-256h-128v-128h128v-256h-128v-128h-768zM256 128h384v256h-384v-256zM256 512h384v256h-384v-256z" />
<glyph unicode="C" d="M0 256v384h128v128h128v128h512v-128h128v-128h-256v128h-256v-128h-128v-384h128v-128h256v128h256v-128h-128v-128h-512v128h-128v128h-128z" />
<glyph unicode="D" d="M0 0v896h640v-128h128v-128h128v-384h-128v-128h-128v-128h-640zM256 128h256v128h128v384h-128v128h-256v-640z" />
<glyph unicode="E" d="M0 0v896h896v-128h-640v-256h512v-128h-512v-256h640v-128h-896z" />
<glyph unicode="F" d="M0 0v896h896v-128h-640v-256h512v-128h-512v-384h-256z" />
<glyph unicode="G" d="M0 256v384h128v128h128v128h640v-128h-512v-128h-128v-384h128v-128h256v256h-128v128h384v-512h-640v128h-128v128h-128z" />
<glyph unicode="H" d="M0 0v896h256v-384h384v384h256v-896h-256v384h-384v-384h-256z" />
<glyph unicode="I" d="M0 0v128h256v640h-256v128h896v-128h-256v-640h256v-128h-896z" />
<glyph unicode="J" d="M0 128v128h256v-128h384v768h256v-768h-128v-128h-640v128h-128z" />
<glyph unicode="K" d="M0 0v896h256v-384h128v128h128v128h128v128h256v-128h-128v-128h-128v-128h-128v-128h128v-128h128v-128h128v-128h-256v128h-128v128h-128v128h-128v-384h-256z" />
<glyph unicode="L" d="M0 0v896h384v-768h512v-128h-896z" />
<glyph unicode="M" d="M0 0v896h256v-128h128v-128h128v128h128v128h256v-896h-256v384h-128v-128h-128v128h-128v-384h-256z" />
<glyph unicode="N" d="M0 0v896h256v-128h128v-128h128v-128h128v384h256v-896h-256v128h-128v128h-128v128h-128v-384h-256z" />
<glyph unicode="O" d="M0 128v640h128v128h640v-128h128v-640h-128v-128h-640v128h-128zM256 128h384v640h-384v-640z" />
<glyph unicode="P" d="M0 0v896h768v-128h128v-384h-128v-128h-512v-256h-256zM256 384h384v384h-384v-384z" />
<glyph unicode="Q" d="M0 128v640h128v128h640v-128h128v-512h-128v-128h-128v-128h-512v128h-128zM256 128h256v128h-128v128h256v384h-384v-640zM768 0v128h128v-128h-128z" />
<glyph unicode="R" d="M0 0v896h768v-128h128v-384h-256v-128h128v-128h128v-128h-384v128h-128v128h-128v-256h-256zM256 384h256v128h128v256h-384v-384z" />
<glyph unicode="S" d="M0 128v128h256v-128h384v256h-512v128h-128v256h128v128h512v-128h128v-128h-256v128h-256v-256h512v-128h128v-256h-128v-128h-640v128h-128z" />
<glyph unicode="T" d="M0 768v128h896v-128h-256v-768h-384v768h-256z" />
<glyph unicode="U" d="M0 128v768h256v-768h384v768h256v-768h-128v-128h-640v128h-128z" />
<glyph unicode="V" d="M0 384v512h256v-512h128v-128h128v128h128v512h256v-512h-128v-128h-128v-128h-128v-128h-128v128h-128v128h-128v128h-128z" />
<glyph unicode="W" d="M0 256v640h256v-384h128v128h128v-128h128v384h256v-640h-128v-256h-128v128h-128v128h-128v-128h-128v-128h-128v256h-128z" />
<glyph unicode="X" d="M0 0v256h128v128h128v128h-128v128h-128v256h256v-128h128v-128h128v128h128v128h256v-256h-128v-128h-128v-128h128v-128h128v-256h-256v128h-128v128h-128v-128h-128v-128h-256z" />
<glyph unicode="Y" horiz-adv-x="960" d="M0 512v384h256v-384h256v384h256v-384h-128v-128h-128v-384h-256v384h-128v128h-128z" />
<glyph unicode="Z" d="M0 0v256h128v128h128v128h128v128h128v128h-512v128h896v-256h-128v-128h-128v-128h-128v-128h-128v-128h512v-128h-896z" />
<glyph unicode="[" horiz-adv-x="704" d="M0 0v896h512v-128h-256v-640h256v-128h-512z" />
<glyph unicode="\" d="M0 768v128h128v-128h-128zM128 640v128h128v-128h-128zM256 512v128h128v-128h-128zM384 384v128h128v-128h-128zM512 256v128h128v-128h-128zM640 128v128h128v-128h-128zM768 0v128h128v-128h-128z" />
<glyph unicode="]" horiz-adv-x="704" d="M0 0v128h256v640h-256v128h512v-896h-512z" />
<glyph unicode="^" d="M0 384v128h128v128h128v128h128v128h128v-128h128v-128h128v-128h128v-128h-256v128h-128v128h-128v-128h-128v-128h-256z" />
<glyph unicode="_" d="M0 0v128h896v-128h-896z" />
<glyph unicode="`" horiz-adv-x="576" d="M0 1152v128h256v-128h128v-128h-256v128h-128z" />
<glyph unicode="a" horiz-adv-x="960" d="M0 128v256h128v128h384v128h-384v128h512v-128h128v-512h-128v-128h-512v128h-128zM256 128h256v256h-256v-256z" />
<glyph unicode="b" horiz-adv-x="960" d="M0 0v896h256v-128h384v-128h128v-512h-128v-128h-640zM256 128h256v512h-256v-512z" />
<glyph unicode="c" horiz-adv-x="960" d="M0 128v512h128v128h512v-128h128v-128h-256v128h-256v-512h256v128h256v-128h-128v-128h-512v128h-128z" />
<glyph unicode="d" horiz-adv-x="960" d="M0 128v512h128v128h384v128h256v-896h-640v128h-128zM256 128h256v512h-256v-512z" />
<glyph unicode="e" horiz-adv-x="960" d="M0 128v512h128v128h512v-128h128v-384h-512v-128h384v-128h-512v128h-128zM256 384h256v256h-256v-256z" />
<glyph unicode="f" horiz-adv-x="832" d="M0 512v128h128v128h128v128h384v-128h-256v-128h128v-128h-128v-512h-256v512h-128z" />
<glyph unicode="g" horiz-adv-x="960" d="M0 128v512h128v128h640v-896h-128v-128h-512v128h384v128h-384v128h-128zM256 128h256v512h-256v-512z" />
<glyph unicode="h" horiz-adv-x="960" d="M0 0v896h256v-128h384v-128h128v-640h-256v640h-128v-128h-128v-512h-256z" />
<glyph unicode="i" horiz-adv-x="576" d="M0 512v128h384v-640h-256v512h-128zM128 768v128h256v-128h-256z" />
<glyph unicode="j" horiz-adv-x="704" d="M0 -128h256v640h-128v128h384v-768h-128v-128h-384v128zM256 768v128h256v-128h-256z" />
<glyph unicode="k" horiz-adv-x="960" d="M0 0v896h256v-512h128v128h128v256h256v-256h-128v-128h-128v-128h128v-128h128v-128h-256v128h-128v128h-128v-256h-256z" />
<glyph unicode="l" horiz-adv-x="576" d="M0 768v128h384v-896h-256v768h-128z" />
<glyph unicode="m" d="M0 0v768h384v-128h128v128h256v-128h128v-640h-256v256h-128v-128h-128v128h-128v-256h-256z" />
<glyph unicode="n" horiz-adv-x="960" d="M0 0v768h640v-128h128v-640h-256v640h-128v-128h-128v-512h-256z" />
<glyph unicode="o" horiz-adv-x="960" d="M0 128v512h128v128h512v-128h128v-512h-128v-128h-512v128h-128zM256 128h256v512h-256v-512z" />
<glyph unicode="p" horiz-adv-x="960" d="M0 -256v1024h640v-128h128v-512h-128v-128h-384v-256h-256zM256 128h256v512h-256v-512z" />
<glyph unicode="q" horiz-adv-x="960" d="M0 128v512h128v128h640v-1024h-256v256h-384v128h-128zM256 128h256v512h-256v-512z" />
<glyph unicode="r" horiz-adv-x="960" d="M0 0v768h640v-128h128v-128h-256v128h-256v-640h-256z" />
<glyph unicode="s" horiz-adv-x="960" d="M0 128v128h256v-128h256v256h-384v128h-128v128h128v128h512v-128h-384v-128h384v-128h128v-256h-128v-128h-512v128h-128z" />
<glyph unicode="t" horiz-adv-x="960" d="M128 640v128h128v128h256v-128h128v-128h-128v-512h256v-128h-384v128h-128v512h-128z" />
<glyph unicode="u" horiz-adv-x="960" d="M0 128v640h256v-640h128v128h128v512h256v-768h-640v128h-128z" />
<glyph unicode="v" horiz-adv-x="960" d="M0 256v512h256v-512h256v512h256v-512h-128v-128h-128v-128h-256v128h-128v128h-128z" />
<glyph unicode="w" d="M0 256v512h256v-384h128v128h128v-128h128v384h256v-512h-128v-128h-128v-128h-128v128h-128v-128h-128v128h-128v128h-128z" />
<glyph unicode="x" horiz-adv-x="960" d="M0 0v256h128v128h128v128h-128v128h-128v128h256v-128h256v128h256v-128h-128v-128h-128v-128h128v-128h128v-256h-256v256h-256v-256h-256z" />
<glyph unicode="y" horiz-adv-x="960" d="M0 128v640h256v-640h256v640h256v-896h-128v-128h-512v128h384v128h-384v128h-128z" />
<glyph unicode="z" horiz-adv-x="960" d="M0 0v256h128v128h128v128h128v128h-384v128h768v-256h-128v-128h-128v-128h-128v-128h384v-128h-768z" />
<glyph unicode="{" horiz-adv-x="704" d="M0 384v128h128v256h128v128h256v-128h-128v-256h-128v-128h128v-256h128v-128h-256v128h-128v256h-128z" />
<glyph unicode="|" horiz-adv-x="448" d="M0 0v896h256v-896h-256z" />
<glyph unicode="}" horiz-adv-x="704" d="M0 0v128h128v256h128v128h-128v256h-128v128h256v-128h128v-256h128v-128h-128v-256h-128v-128h-256z" />
<glyph unicode="~" d="M0 256v128h128v128h128v128h256v-128h128v128h256v-128h-128v-128h-128v-128h-256v128h-128v-128h-256z" />
<glyph unicode="&#xa1;" horiz-adv-x="704" d="M0 768v128h128v-128h-128zM128 128v512h128v-128h128v-128h128v-384h-256v128h-128z" />
<glyph unicode="&#xa2;" horiz-adv-x="960" d="M128 256v256h128v128h256v128h128v-128h128v-128h-384v-256h384v-128h-256v-128h-128v128h-128v128h-128z" />
<glyph unicode="&#xa5;" horiz-adv-x="960" d="M0 128v128h256v128h-256v128h128v128h-128v256h256v-256h256v256h256v-256h-128v-128h128v-128h-256v-128h256v-128h-256v-128h-256v128h-256z" />
<glyph unicode="&#xa9;" horiz-adv-x="1216" d="M0 256v512h128v-512h-128zM128 128v128h128v-128h-128zM128 768v128h128v-128h-128zM256 0v128h512v-128h-512zM256 384v256h128v-256h-128zM256 896v128h512v-128h-512zM384 256v128h256v-128h-256zM384 640v128h256v-128h-256zM640 384v128h128v-128h-128zM768 128v128 h128v-128h-128zM768 768v128h128v-128h-128zM896 256v512h128v-512h-128z" />
<glyph unicode="&#xad;" horiz-adv-x="960" d="M0 256v256h768v-256h-768z" />
<glyph unicode="&#xae;" horiz-adv-x="1216" d="M0 256v512h128v-512h-128zM128 128v128h128v-128h-128zM128 768v128h128v-128h-128zM256 0v128h512v-128h-512zM256 256v384h128v-128h256v-128h-256v-128h-128zM256 896v128h512v-128h-512zM384 640v128h256v-128h-256zM640 256v128h128v-128h-128zM640 512v128h128 v-128h-128zM768 128v128h128v-128h-128zM768 768v128h128v-128h-128zM896 256v512h128v-512h-128z" />
<glyph unicode="&#xbf;" d="M0 128v256h128v128h256v128h256v-128h-128v-128h-256v-256h384v256h256v-256h-128v-128h-640v128h-128zM384 768v128h256v-128h-256z" />
<glyph unicode="&#x2000;" horiz-adv-x="682" />
<glyph unicode="&#x2001;" horiz-adv-x="1365" />
<glyph unicode="&#x2002;" horiz-adv-x="682" />
<glyph unicode="&#x2003;" horiz-adv-x="1365" />
<glyph unicode="&#x2004;" horiz-adv-x="455" />
<glyph unicode="&#x2005;" horiz-adv-x="341" />
<glyph unicode="&#x2006;" horiz-adv-x="227" />
<glyph unicode="&#x2007;" horiz-adv-x="227" />
<glyph unicode="&#x2008;" horiz-adv-x="170" />
<glyph unicode="&#x2009;" horiz-adv-x="273" />
<glyph unicode="&#x200a;" horiz-adv-x="75" />
<glyph unicode="&#x2010;" horiz-adv-x="960" d="M0 256v256h768v-256h-768z" />
<glyph unicode="&#x2011;" horiz-adv-x="960" d="M0 256v256h768v-256h-768z" />
<glyph unicode="&#x2012;" horiz-adv-x="960" d="M0 256v256h768v-256h-768z" />
<glyph unicode="&#x2013;" horiz-adv-x="1216" d="M0 256v256h1024v-256h-1024z" />
<glyph unicode="&#x2014;" horiz-adv-x="2240" d="M0 256v256h2048v-256h-2048z" />
<glyph unicode="&#x2018;" horiz-adv-x="576" d="M0 512v256h128v128h256v-128h-128v-256h-256z" />
<glyph unicode="&#x2019;" horiz-adv-x="576" d="M0 512v128h128v256h256v-256h-128v-128h-256z" />
<glyph unicode="&#x201c;" d="M0 512v256h128v128h256v-128h-128v-256h-256zM512 512v256h128v128h256v-128h-128v-256h-256z" />
<glyph unicode="&#x201d;" d="M0 512v128h128v256h256v-256h-128v-128h-256zM512 512v128h128v256h256v-256h-128v-128h-256z" />
<glyph unicode="&#x202f;" horiz-adv-x="273" />
<glyph unicode="&#x205f;" horiz-adv-x="341" />
<glyph unicode="&#x2122;" horiz-adv-x="1216" d="M0 768v128h512v-128h128v-128h-128v-128h-128v256h-128v-256h-128v256h-128zM640 512v128h128v-128h-128zM768 640v128h128v128h128v-384h-128v128h-128z" />
<glyph unicode="&#x25fc;" horiz-adv-x="770" d="M0 0v770h770v-770h-770z" />
</font>
</defs>
</svg>
